Галвестон / Galveston (2018) WEBRip 720p | L2

Ответить на тему
 
Автор Сообщение

Grandfather61 ®

Пол: Не указан

Стаж: 6 месяцев 17 дней

Сообщений: 265

Создавать темы 27-Окт-2018 14:12

[Цитировать]


Информация о фильме
Название: Галвестон
Оригинальное название: Galveston
Год выхода: 2018
Жанр: Боевик, триллер, драма, криминал
Режиссер: Мелани Лоран
В ролях: Лили Рейнхарт, Элль Фэннинг, Бен Фостер, Мария Вальверде, Бо Бриджес, Роберт Арамайо, Эдеперо Одуйе, Тинсли Прайс, Эннистон Прайс, Хайди Левандовски
О фильме:
История о бывшем приспешнике мафиози Рое Кэди, который имел неосторожность перейти дорогу своему влиятельному боссу. Став мишенью наёмных убийц, Кэди пускается в бега и по стечению обстоятельств берёт ответственность за жизнь ещё и своей неожиданной спутницы — совсем молоденькой проститутки.

Страна: США, Jean Doumanian Productions, Low Spark Films
Продолжительность: 01:33:50
Перевод: Любительский (двухголосый закадровый) | HiWay Grope
Файл
Кодек: MPEG-4 AVC/x.264
Качество: WEBRip 720p
Видео: 1280x534, 23.976 fps, ~2902 kbps, 0.177 bit/pixel
Звук:
Аудио rus: AC3, 48 kHz, 2 ch, 192 Kbps
Субтитры: отсутствуют
Реклама: присутствует
Семпл
MediaInfo:
General
Unique ID : 192061140259183493867854157194206638676 (0x907DA14F66F85DEDB8CB50E8BFD3F254)
Complete name : D:Galveston.2018.720p.WEBRip.HiWayGropeGalveston.2018.720p.WEBRip.HiWayGrope.mkv
Format : Matroska
Format version : Version 4 / Version 2
File size : 2.03 GiB
Duration : 1 h 33 min
Overall bit rate mode : Variable
Overall bit rate : 3 096 kb/s
Encoded date : UTC 2018-10-26 23:46:27
Writing application : mkvmerge v17.0.0 ('Be Ur Friend') 64-bit
Writing library : libebml v1.3.5 + libmatroska v1.4.8
Video
ID : 1
Format : AVC
Format/Info : Advanced Video Codec
Format profile : High@L5
Format settings : CABAC / 4 Ref Frames
Format settings, CABAC : Yes
Format settings, RefFrames : 4 frames
Codec ID : V_MPEG4/ISO/AVC
Duration : 1 h 33 min
Bit rate mode : Variable
Bit rate : 2 902 kb/s
Maximum bit rate : 12.0 Mb/s
Width : 1 280 pixels
Height : 534 pixels
Display aspect ratio : 2.40:1
Frame rate mode : Constant
Frame rate : 23.976 (24000/1001) FPS
Standard : NTSC
Color space : YUV
Chroma subsampling : 4:2:0
Bit depth : 8 bits
Scan type : Progressive
Bits/(Pixel*Frame) : 0.177
Stream size : 1.90 GiB (94%)
Language : English
Default : Yes
Forced : No
Color range : Limited
Color primaries : BT.601 NTSC
Transfer characteristics : BT.601
Matrix coefficients : BT.601
Audio
ID : 2
Format : AC-3
Format/Info : Audio Coding 3
Codec ID : A_AC3
Duration : 1 h 33 min
Bit rate mode : Constant
Bit rate : 192 kb/s
Channel(s) : 2 channels
Channel positions : Front: L R
Sampling rate : 48.0 kHz
Frame rate : 31.250 FPS (1536 SPF)
Bit depth : 16 bits
Compression mode : Lossy
Stream size : 129 MiB (6%)
Service kind : Complete Main
Default : Yes
Forced : No
Скриншоты
Релиз от: HiWay Grope
[Профиль] [ЛС]

Создавать темы 28-Окт-2018 18:44 (спустя 1 день 4 часа)

Топик был перенесен из форума Зарубежные сериалы в форум Зарубежные фильмы/Концерты
Mithas204
 
Показать сообщения:    
Ответить на тему

Текущее время: 02-Ноя 15:34

Часовой пояс: UTC + 3



Вы не можете начинать темы
Вы не можете отвечать на сообщения
Вы не можете редактировать свои сообщения
Вы не можете удалять свои сообщения
Вы не можете голосовать в опросах
Вы не можете прикреплять файлы к сообщениям
Вы не можете скачивать файлы
Sitemap