Границы / Boundaries (2018) WEBRip 720p | L2

Ответить на тему
 
Автор Сообщение

Grandfather61 ®

Пол: Не указан

Стаж: 6 месяцев 17 дней

Сообщений: 265

Создавать темы Вчера, в 10:41

[Цитировать]


Информация о фильме
Название: Границы
Оригинальное название: Boundaries
Год выхода: 2018
Жанр: Драма, комедия
Режиссер: Шана Фест
В ролях: Вера Фармига, Кристофер Пламмер, Льюис МакДугалл, Кристофер Ллойд, Яхья Абдул-Матин II, Кристен Шаал, Бобби Каннавейл, Питер Фонда, Долли Уэллс, Диана Банг
О фильме:
Лора и её сын Генри вынуждены везти отдалившегося, торгующего травкой, беззаботного отца Джека через страну после того, как его вышвырнули из дома престарелых.

Страна: Канада, США, Automatik, Oddfellows Entertainment, Stage 6 Films
Продолжительность: 01:45:06
Перевод: Любительский (двухголосый закадровый) | HiWay Grope
Файл
Кодек: MPEG-4 AVC/x.264
Качество: WEBRip 720p
Видео: 1280x530, 23.976 fps, ~2949 kbps, 0.181 bit/pixel
Звук:
Аудио rus: AC3, 48 kHz, 2 ch, 192 Kbps
Субтитры: отсутствуют
Реклама: присутствует
Семпл
MediaInfo:
General
Unique ID : 240795723077777752163879904026594006593 (0xB52791C149A96C69AEB228DE993E5641)
Complete name : D:Boundaries.2018.720p.WEBRip.HiWayGropeBoundaries.2018.720p.WEBRip.HiWayGrope.mkv
Format : Matroska
Format version : Version 4 / Version 2
File size : 2.31 GiB
Duration : 1 h 45 min
Overall bit rate mode : Variable
Overall bit rate : 3 143 kb/s
Encoded date : UTC 2018-11-01 04:43:19
Writing application : mkvmerge v17.0.0 ('Be Ur Friend') 64-bit
Writing library : libebml v1.3.5 + libmatroska v1.4.8
Video
ID : 1
Format : AVC
Format/Info : Advanced Video Codec
Format profile : High@L5
Format settings : CABAC / 4 Ref Frames
Format settings, CABAC : Yes
Format settings, RefFrames : 4 frames
Codec ID : V_MPEG4/ISO/AVC
Duration : 1 h 45 min
Bit rate mode : Variable
Bit rate : 2 949 kb/s
Maximum bit rate : 12.0 Mb/s
Width : 1 280 pixels
Height : 530 pixels
Display aspect ratio : 2.40:1
Frame rate mode : Constant
Frame rate : 23.976 (24000/1001) FPS
Standard : NTSC
Color space : YUV
Chroma subsampling : 4:2:0
Bit depth : 8 bits
Scan type : Progressive
Bits/(Pixel*Frame) : 0.181
Stream size : 2.17 GiB (94%)
Language : English
Default : Yes
Forced : No
Color range : Limited
Color primaries : BT.601 NTSC
Transfer characteristics : BT.601
Matrix coefficients : BT.601
Audio
ID : 2
Format : AC-3
Format/Info : Audio Coding 3
Codec ID : A_AC3
Duration : 1 h 45 min
Bit rate mode : Constant
Bit rate : 192 kb/s
Channel(s) : 2 channels
Channel positions : Front: L R
Sampling rate : 48.0 kHz
Frame rate : 31.250 FPS (1536 SPF)
Bit depth : 16 bits
Compression mode : Lossy
Stream size : 144 MiB (6%)
Service kind : Complete Main
Default : Yes
Forced : No
Скриншоты
Релиз от: HiWay Grope
[Профиль] [ЛС]
Показать сообщения:    
Ответить на тему

Текущее время: 02-Ноя 13:09

Часовой пояс: UTC + 3



Вы не можете начинать темы
Вы не можете отвечать на сообщения
Вы не можете редактировать свои сообщения
Вы не можете удалять свои сообщения
Вы не можете голосовать в опросах
Вы не можете прикреплять файлы к сообщениям
Вы не можете скачивать файлы
Sitemap