Школа / The School (2018) WEBRip | L2

Ответить на тему
 
Автор Сообщение

Grandfather61 ®

Пол: Не указан

Стаж: 6 месяцев 21 день

Сообщений: 287

Создавать темы 03-Ноя-2018 14:00

[Цитировать]


Информация о фильме
Название: Школа
Оригинальное название: The School
Год выхода: 2018
Жанр: Ужасы, триллер
Режиссер: Сторм Эшвуд
В ролях: Николас Хоуп, Меган Друри, Уилл МакДональд, Милли Олкок, Тексас Уоттерстон, Джек Рувальд, Кристиан Уиллис, Алексия Сантосуоссо, Сасси Соудидис, Шерил Крэйг
О фильме:
Пытаясь помочь сыну, впавшему в кому, его мать оказывается в заброшенной школе. Чтобы выжить в месте, где потусторонний мир соприкасается с реальным, ей придётся взглянуть в глаза истинному страху.

Страна: Австралия, Bronte Pictures,Head Gear Films,Kreo Films FZ
Продолжительность: 01:29:17
Перевод: Любительский (двухголосый закадровый) | HiWay Grope
Файл
Кодек: XviD
Качество: WEBRip
Видео: 720x304, 25 fps, ~919 kbps, 0.17 bit/pixel
Звук:
Аудио rus: AC3, 48 kHz, 6 ch, 384 Kbps
Субтитры: отсутствуют
Реклама: присутствует
Семпл
MediaInfo:
General
Complete name : D:The.School.2018.WEBRip.HiWayGropeThe.School.2018.WEBRip.HiWayGrope.avi
Format : AVI
Format/Info : Audio Video Interleave
File size : 839 MiB
Duration : 1 h 29 min
Overall bit rate : 1 313 kb/s
Writing application : VirtualDubMod 1.5.10.2 (build 2540/release)
Writing library : VirtualDubMod build 2540/release
Video
ID : 0
Format : xvid
Codec ID : xvid
Duration : 1 h 29 min
Bit rate : 920 kb/s
Width : 720 pixels
Height : 304 pixels
Display aspect ratio : 2.35:1
Frame rate : 25.000 FPS
Bits/(Pixel*Frame) : 0.168
Stream size : 587 MiB (70%)
Audio
ID : 1
Format : AC-3
Format/Info : Audio Coding 3
Codec ID : 2000
Duration : 1 h 29 min
Bit rate mode : Constant
Bit rate : 384 kb/s
Channel(s) : 6 channels
Channel positions : Front: L C R, Side: L R, LFE
Sampling rate : 48.0 kHz
Frame rate : 31.250 FPS (1536 SPF)
Bit depth : 16 bits
Compression mode : Lossy
Stream size : 245 MiB (29%)
Alignment : Split accross interleaves
Interleave, duration : 40 ms (1.00 video frame)
Interleave, preload duration : 500 ms
Service kind : Complete Main
Скриншоты
Релиз от: HiWay Grope
[Профиль] [ЛС]
Показать сообщения:    
Ответить на тему

Текущее время: 06-Ноя 21:41

Часовой пояс: UTC + 3



Вы не можете начинать темы
Вы не можете отвечать на сообщения
Вы не можете редактировать свои сообщения
Вы не можете удалять свои сообщения
Вы не можете голосовать в опросах
Вы не можете прикреплять файлы к сообщениям
Вы не можете скачивать файлы
Sitemap