О, Люси! / Oh Lucy! (2017) WEBRip 720p | L2

Ответить на тему
 
Автор Сообщение

Grandfather61 ®

Пол: Не указан

Стаж: 6 месяцев 21 день

Сообщений: 287

Создавать темы Сегодня, в 18:41

[Цитировать]


Информация о фильме
Название: О, Люси!
Оригинальное название: Oh Lucy!
Год выхода: 2017
Жанр: Драма, комедия
Режиссер: Ацуко Хираянаги
В ролях: Синобу Тэрадзима, Джош Хартнетт, Кахо Минами, Сиори Куцуна, Кодзи Якусё, Меган Маллалли, Рейко Эйлсворт, Арман Торосян, Миоко Ямагути
О фильме:
История Сэцуко Кавасимы — немолодой офисной служащей, без конца курящей и неизменно одинокой в огромном Токио. Однажды по просьбе племянницы Мики женщина идёт на курсы английского и в своём американском альтер-эго — Люси — Сэцуко узнаёт другую, обновлённую версию себя. Это вдохновляет и раскрепощает женщину, она влюбляется в своего преподавателя Джона. Когда Джон с Микой сбегают в Америку, Сецуко вместе с младшей сестрой, матерью Мики, отправляется за ними в Калифорнию.

Страна: Япония, США, Matchgirl Pictures, Gloria Sanchez Productions, Meridian Content
Продолжительность: 01:36:06
Перевод: Любительский (двухголосый закадровый) | HiWay Grope
Файл
Кодек: MPEG-4 AVC/x.264
Качество: WEBRip 720p
Видео: 1280x694, 23.976 fps, ~2895 kbps, 0.136 bit/pixel
Звук:
Аудио rus: AC3, 48 kHz, 6 ch, 384 Kbps
Субтитры: отсутствуют
Реклама: присутствует
Семпл
MediaInfo:
General
Unique ID : 85447273896160696466430402805526569882 (0x40488BDD59AC895C04C2855314C6239A)
Complete name : D:Oh.Lucy.2017.720p.WEBRip.HiWayGropeOh.Lucy.2017.720p.WEBRip.HiWayGrope.mkv
Format : Matroska
Format version : Version 4 / Version 2
File size : 2.20 GiB
Duration : 1 h 36 min
Overall bit rate : 3 281 kb/s
Encoded date : UTC 2018-11-06 09:21:12
Writing application : mkvmerge v28.1.0 ('Morning Child') 64-bit
Writing library : libebml v1.3.6 + libmatroska v1.4.9
Video
ID : 1
Format : AVC
Format/Info : Advanced Video Codec
Format profile : Main@L3.1
Format settings : CABAC / 4 Ref Frames
Format settings, CABAC : Yes
Format settings, RefFrames : 4 frames
Codec ID : V_MPEG4/ISO/AVC
Duration : 1 h 36 min
Bit rate : 2 895 kb/s
Width : 1 280 pixels
Height : 694 pixels
Display aspect ratio : 1.85:1
Frame rate mode : Constant
Frame rate : 23.976 (24000/1001) FPS
Standard : NTSC
Color space : YUV
Chroma subsampling : 4:2:0
Bit depth : 8 bits
Scan type : Progressive
Bits/(Pixel*Frame) : 0.136
Stream size : 1.94 GiB (88%)
Language : English
Default : Yes
Forced : No
Color range : Limited
Color primaries : BT.709
Transfer characteristics : BT.709
Matrix coefficients : BT.709
Audio
ID : 2
Format : AC-3
Format/Info : Audio Coding 3
Codec ID : A_AC3
Duration : 1 h 36 min
Bit rate mode : Constant
Bit rate : 384 kb/s
Channel(s) : 6 channels
Channel positions : Front: L C R, Side: L R, LFE
Sampling rate : 48.0 kHz
Frame rate : 31.250 FPS (1536 SPF)
Bit depth : 16 bits
Compression mode : Lossy
Stream size : 264 MiB (12%)
Service kind : Complete Main
Default : Yes
Forced : No
Скриншоты
Релиз от: HiWay Grope
[Профиль] [ЛС]
Показать сообщения:    
Ответить на тему

Текущее время: 06-Ноя 21:41

Часовой пояс: UTC + 3



Вы не можете начинать темы
Вы не можете отвечать на сообщения
Вы не можете редактировать свои сообщения
Вы не можете удалять свои сообщения
Вы не можете голосовать в опросах
Вы не можете прикреплять файлы к сообщениям
Вы не можете скачивать файлы
Sitemap