Королева Голливудского бульвара / The Queen of Hollywood Blvd (2017) WEBRip 720p | L2

Ответить на тему
 
Автор Сообщение

Grandfather61 ®

Пол: Не указан

Стаж: 6 месяцев 15 дней

Сообщений: 258

Создавать темы Сегодня, в 11:04

[Цитировать]


Информация о фильме
Название: Королева Голливудского бульвара
Оригинальное название: Королева Голливудского бульвара
Год выхода: 2017
Жанр: Драма, криминал
Режиссер: Орсон Обловитц
В ролях: Розмари Хохшилд, Ана Мулвой-Тен, Роджер Гуэнвёр Смит, Майкл Паркс, Элла Томас, Джон Линдстрём, Джон Скларофф, Орсон Обловитц, Криста Лэнг, Питер Лукас
О фильме:
Горделивая шестидесятилетняя владелица стрип клуба в Лос Анджелесе попадает в неприятности из-за давнишнего долга перед мафией и оказывается в круговороте насилия и мести на задворках города ангелов.

Страна: США, Concrete Images,Nero-Films
Продолжительность: 01:33:11
Перевод: Любительский (двухголосый закадровый) | HiWay Grope
Файл
Кодек: MPEG-4 AVC/x.264
Качество: WEBRip 720p
Видео: 1280x640, 25.000 fps, ~4204 kbps, 0.205 bit/pixel
Звук:
Аудио rus: AC3, 48 kHz, 6 ch, 384 Kbps
Субтитры: отсутствуют
Реклама: присутствует
Семпл
MediaInfo:
General
Unique ID : 184770579589955155177180691226395927780 (0x8B0184EAC6D50EEE898E41B7355FE4E4)
Complete name : D:The.Queen.of.Hollywood.Blvd.2017.720p.WEBRip.HiWayGropeThe.Queen.of.Hollywood.Blvd.2018.720p.WEBRip.HiWayGrope.mkv
Format : Matroska
Format version : Version 2
File size : 3.05 GiB
Duration : 1 h 33 min
Overall bit rate : 4 681 kb/s
Encoded date : UTC 2018-10-29 19:52:13
Writing application : mkvmerge v3.3.0 ('Language') built on Mar 24 2010 14:59:24
Writing library : libebml v0.8.0 + libmatroska v0.9.0
Video
ID : 1
Format : AVC
Format/Info : Advanced Video Codec
Format profile : Main@L3.1
Format settings : CABAC / 3 Ref Frames
Format settings, CABAC : Yes
Format settings, RefFrames : 3 frames
Codec ID : V_MPEG4/ISO/AVC
Duration : 1 h 33 min
Bit rate : 4 204 kb/s
Width : 1 280 pixels
Height : 640 pixels
Display aspect ratio : 2.000
Frame rate mode : Constant
Frame rate : 25.000 FPS
Standard : PAL
Color space : YUV
Chroma subsampling : 4:2:0
Bit depth : 8 bits
Scan type : Progressive
Bits/(Pixel*Frame) : 0.205
Stream size : 2.74 GiB (90%)
Language : English
Default : Yes
Forced : No
Color range : Limited
Color primaries : BT.709
Transfer characteristics : BT.709
Matrix coefficients : BT.709
Audio
ID : 2
Format : AC-3
Format/Info : Audio Coding 3
Codec ID : A_AC3
Duration : 1 h 33 min
Bit rate mode : Constant
Bit rate : 384 kb/s
Channel(s) : 6 channels
Channel positions : Front: L C R, Side: L R, LFE
Sampling rate : 48.0 kHz
Frame rate : 31.250 FPS (1536 SPF)
Bit depth : 16 bits
Compression mode : Lossy
Stream size : 256 MiB (8%)
Service kind : Complete Main
Default : Yes
Forced : No
Скриншоты
Релиз от: HiWay Grope
[Профиль] [ЛС]
Показать сообщения:    
Ответить на тему

Текущее время: 30-Окт 15:45

Часовой пояс: UTC + 3



Вы не можете начинать темы
Вы не можете отвечать на сообщения
Вы не можете редактировать свои сообщения
Вы не можете удалять свои сообщения
Вы не можете голосовать в опросах
Вы не можете прикреплять файлы к сообщениям
Вы не можете скачивать файлы
Sitemap