Королева Голливудского бульвара / The Queen of Hollywood Blvd (2017) WEBRip | L2

Ответить на тему
 
Автор Сообщение

Grandfather61 ®

Пол: Не указан

Стаж: 6 месяцев 15 дней

Сообщений: 258

Создавать темы Сегодня, в 11:08

[Цитировать]


Информация о фильме
Название: Королева Голливудского бульвара
Оригинальное название: Королева Голливудского бульвара
Год выхода: 2017
Жанр: Драма, криминал
Режиссер: Орсон Обловитц
В ролях: Розмари Хохшилд, Ана Мулвой-Тен, Роджер Гуэнвёр Смит, Майкл Паркс, Элла Томас, Джон Линдстрём, Джон Скларофф, Орсон Обловитц, Криста Лэнг, Питер Лукас
О фильме:
Горделивая шестидесятилетняя владелица стрип клуба в Лос Анджелесе попадает в неприятности из-за давнишнего долга перед мафией и оказывается в круговороте насилия и мести на задворках города ангелов.

Страна: США, Concrete Images,Nero-Films
Продолжительность: 01:33:11
Перевод: Любительский (двухголосый закадровый) | HiWay Grope
Файл
Кодек: XviD
Качество: WEBRip
Видео: 720x360, 25 fps, ~1171 kbps, 0.18 bit/pixel
Звук:
Аудио rus: AC3, 48 kHz, 6 ch, 384 Kbps
Субтитры: отсутствуют
Реклама: присутствует
Семпл
MediaInfo:
General
Complete name : D:The.Queen.of.Hollywood.Blvd.2017.WEBRip.HiWayGropeThe.Queen.of.Hollywood.Blvd.2018.WEBRip.HiWayGrope.avi
Format : AVI
Format/Info : Audio Video Interleave
File size : 1.02 GiB
Duration : 1 h 33 min
Overall bit rate : 1 565 kb/s
Writing application : VirtualDubMod 1.5.10.2 (build 2540/release)
Writing library : VirtualDubMod build 2540/release
Video
ID : 0
Format : xvid
Codec ID : xvid
Duration : 1 h 33 min
Bit rate : 1 172 kb/s
Width : 720 pixels
Height : 360 pixels
Display aspect ratio : 2.000
Frame rate : 25.000 FPS
Bits/(Pixel*Frame) : 0.181
Stream size : 781 MiB (75%)
Audio
ID : 1
Format : AC-3
Format/Info : Audio Coding 3
Codec ID : 2000
Duration : 1 h 33 min
Bit rate mode : Constant
Bit rate : 384 kb/s
Channel(s) : 6 channels
Channel positions : Front: L C R, Side: L R, LFE
Sampling rate : 48.0 kHz
Frame rate : 31.250 FPS (1536 SPF)
Bit depth : 16 bits
Compression mode : Lossy
Stream size : 256 MiB (25%)
Alignment : Split accross interleaves
Interleave, duration : 40 ms (1.00 video frame)
Interleave, preload duration : 500 ms
Service kind : Complete Main
Скриншоты
Релиз от: HiWay Grope
[Профиль] [ЛС]
Показать сообщения:    
Ответить на тему

Текущее время: 30-Окт 15:45

Часовой пояс: UTC + 3



Вы не можете начинать темы
Вы не можете отвечать на сообщения
Вы не можете редактировать свои сообщения
Вы не можете удалять свои сообщения
Вы не можете голосовать в опросах
Вы не можете прикреплять файлы к сообщениям
Вы не можете скачивать файлы
Sitemap