Американский Экзорцист / American Exorcist (2018) WEBRip 720p | L2

Ответить на тему
 
Автор Сообщение

Grandfather61 ®

Пол: Не указан

Стаж: 6 месяцев 17 дней

Сообщений: 265

Создавать темы Сегодня, в 10:21

[Цитировать]


Информация о фильме
Название: Американский Экзорцист
Оригинальное название: American Exorcist
Год выхода: 2018
Жанр: Ужасы
Режиссер: Тони Тров, Джонни Зито
В ролях: Билл Моусли, Джемма Мачиленни, Алекса Мария Санти, Джон Боларис, Джо Анна Ван Туйн, Леанна Биллингс, Джек МакКивер, Беверли Ривера, Джефф Оренс, Крис Баллерини
О фильме:
Паранормальный детектив оказался заперт в призрачном небоскрёбе. Девушка скептик по имени Джорджетта ДиБуа приходит в ужас, когда ей приходится столкнуться со сверхъестественным. Она рискует жизнью, пытаясь сбежать из проклятой тюрьмы на 11 этаже

Страна: США, South Fellini, Woodshop Films
Продолжительность: 01:30:01
Перевод: Любительский (двухголосый закадровый) | HiWay Grope
Файл
Кодек: MPEG-4 AVC/x.264
Качество: WEBRip 720p
Видео: 1280x544, 23.976 fps, ~2953 kbps, 0.177 bit/pixel
Звук:
Аудио rus: AC3, 48 kHz, 2 ch, 192 Kbps
Субтитры: отсутствуют
Реклама: присутствует
Семпл
MediaInfo:
General
Unique ID : 243227177170611507357228561809543865008 (0xB6FBD9B283BA371F9E126BC7236922B0)
Complete name : D:American.Exorcist.2018.720p.WEBRip.HiWayGropeAmerican.Exorcist.2018.720p.WEBRip.HiWayGrope.mkv
Format : Matroska
Format version : Version 4 / Version 2
File size : 1.98 GiB
Duration : 1 h 30 min
Overall bit rate mode : Variable
Overall bit rate : 3 147 kb/s
Encoded date : UTC 2018-11-01 04:39:10
Writing application : mkvmerge v17.0.0 ('Be Ur Friend') 64-bit
Writing library : libebml v1.3.5 + libmatroska v1.4.8
Video
ID : 1
Format : AVC
Format/Info : Advanced Video Codec
Format profile : High@L5
Format settings : CABAC / 4 Ref Frames
Format settings, CABAC : Yes
Format settings, RefFrames : 4 frames
Codec ID : V_MPEG4/ISO/AVC
Duration : 1 h 30 min
Bit rate mode : Variable
Bit rate : 2 953 kb/s
Maximum bit rate : 12.0 Mb/s
Width : 1 280 pixels
Height : 544 pixels
Display aspect ratio : 2.35:1
Frame rate mode : Constant
Frame rate : 23.976 (24000/1001) FPS
Standard : NTSC
Color space : YUV
Chroma subsampling : 4:2:0
Bit depth : 8 bits
Scan type : Progressive
Bits/(Pixel*Frame) : 0.177
Stream size : 1.86 GiB (94%)
Language : English
Default : Yes
Forced : No
Color range : Limited
Color primaries : BT.601 NTSC
Transfer characteristics : BT.601
Matrix coefficients : BT.601
Audio
ID : 2
Format : AC-3
Format/Info : Audio Coding 3
Codec ID : A_AC3
Duration : 1 h 30 min
Bit rate mode : Constant
Bit rate : 192 kb/s
Channel(s) : 2 channels
Channel positions : Front: L R
Sampling rate : 48.0 kHz
Frame rate : 31.250 FPS (1536 SPF)
Bit depth : 16 bits
Compression mode : Lossy
Stream size : 124 MiB (6%)
Service kind : Complete Main
Default : Yes
Forced : No
Скриншоты
Релиз от: HiWay Grope
[Профиль] [ЛС]
Показать сообщения:    
Ответить на тему

Текущее время: 01-Ноя 16:19

Часовой пояс: UTC + 3



Вы не можете начинать темы
Вы не можете отвечать на сообщения
Вы не можете редактировать свои сообщения
Вы не можете удалять свои сообщения
Вы не можете голосовать в опросах
Вы не можете прикреплять файлы к сообщениям
Вы не можете скачивать файлы
Sitemap