Американский Экзорцист / American Exorcist (2018) WEBRip | L2

Ответить на тему
 
Автор Сообщение

Grandfather61 ®

Пол: Не указан

Стаж: 6 месяцев 17 дней

Сообщений: 265

Создавать темы Сегодня, в 10:25

[Цитировать]


Информация о фильме
Название: Американский Экзорцист
Оригинальное название: American Exorcist
Год выхода: 2018
Жанр: Ужасы
Режиссер: Тони Тров, Джонни Зито
В ролях: Билл Моусли, Джемма Мачиленни, Алекса Мария Санти, Джон Боларис, Джо Анна Ван Туйн, Леанна Биллингс, Джек МакКивер, Беверли Ривера, Джефф Оренс, Крис Баллерини
О фильме:
Паранормальный детектив оказался заперт в призрачном небоскрёбе. Девушка скептик по имени Джорджетта ДиБуа приходит в ужас, когда ей приходится столкнуться со сверхъестественным. Она рискует жизнью, пытаясь сбежать из проклятой тюрьмы на 11 этаже

Страна: США, South Fellini, Woodshop Films
Продолжительность: 01:30:01
Перевод: Любительский (двухголосый закадровый) | HiWay Grope
Файл
Кодек: XviD
Качество: WEBRip
Видео: 720x304, 23.976 fps, ~1765 kbps, 0.34 bit/pixel
Звук:
Аудио rus: AC3, 48 kHz, 2 ch, 192 Kbps
Субтитры: отсутствуют
Реклама: присутствует
Семпл
MediaInfo:
General
Complete name : D:American.Exorcist.2018.WEBRip.HiWayGropeAmerican.Exorcist.2018.WEBRip.HiWayGrope.avi
Format : AVI
Format/Info : Audio Video Interleave
Format profile : OpenDML
File size : 1.23 GiB
Duration : 1 h 30 min
Overall bit rate : 1 964 kb/s
Writing application : Lavf57.71.100
Video
ID : 0
Format : MPEG-4 Visual
Format profile : Advanced Simple@L5
Format settings : BVOP1
Format settings, BVOP : 1
Format settings, QPel : No
Format settings, GMC : No warppoints
Format settings, Matrix : Default (H.263)
Codec ID : XVID
Codec ID/Hint : XviD
Duration : 1 h 30 min
Bit rate : 1 759 kb/s
Width : 720 pixels
Height : 304 pixels
Display aspect ratio : 2.35:1
Frame rate : 23.976 (24000/1001) FPS
Color space : YUV
Chroma subsampling : 4:2:0
Bit depth : 8 bits
Scan type : Progressive
Compression mode : Lossy
Bits/(Pixel*Frame) : 0.335
Stream size : 1.11 GiB (90%)
Writing library : XviD 67
Audio
ID : 1
Format : AC-3
Format/Info : Audio Coding 3
Codec ID : 2000
Duration : 1 h 30 min
Bit rate mode : Constant
Bit rate : 192 kb/s
Channel(s) : 2 channels
Channel positions : Front: L R
Sampling rate : 48.0 kHz
Frame rate : 31.250 FPS (1536 SPF)
Bit depth : 16 bits
Compression mode : Lossy
Stream size : 124 MiB (10%)
Alignment : Aligned on interleaves
Interleave, duration : 32 ms (0.77 video frame)
Service kind : Complete Main
Скриншоты
Релиз от: HiWay Grope
[Профиль] [ЛС]
Показать сообщения:    
Ответить на тему

Текущее время: 01-Ноя 16:14

Часовой пояс: UTC + 3



Вы не можете начинать темы
Вы не можете отвечать на сообщения
Вы не можете редактировать свои сообщения
Вы не можете удалять свои сообщения
Вы не можете голосовать в опросах
Вы не можете прикреплять файлы к сообщениям
Вы не можете скачивать файлы
Sitemap