Померкнет свет / All Light Will End (2018) WEBRip | L2

Ответить на тему
 
Автор Сообщение

Grandfather61 ®

Пол: Не указан

Стаж: 7 месяцев 3 дня

Сообщений: 313

Создавать темы 09-Ноя-2018 18:54

[Цитировать]


Информация о фильме
Название: Померкнет свет
Оригинальное название: All Light Will End
Год выхода: 2018
Жанр: Ужасы, триллер
Режиссер: Крис Блейк
В ролях: Энди Бакли, Сара Батлер, Кэти Гарфилд, Джон Шак, Сэм Джонс III, Александра Харрис, Джеймс Фуертес, Аарон Муноз, Билл Билльонс, Тед Уэлш
О фильме:
Когда своенравная молодая писательница, скрывающая мрачную тайну, возвращается домой на выпускной брата, ее преследует прошлое и мучают зловещие ночные кошмары.

Страна: США, Red Vessel Entertainment,Elevating Entertainment,Movie City Films
Продолжительность: 01:24:40
Перевод: Любительский (двухголосый закадровый) | HiWay Grope
Файл
Кодек: XviD
Качество: WEBRip
Видео: 720x352, 23.976 fps, ~1753 kbps, 0.29 bit/pixel
Звук:
Аудио rus: AC3, 48 kHz, 2 ch, 192 Kbps
Субтитры: отсутствуют
Реклама: присутствует
Семпл
MediaInfo:
General
Complete name : D:All.Light.Will.End.2018.WEBRip.HiWayGropeAll.Light.Will.End.2018.WEBRip.HiWayGrope.avi
Format : AVI
Format/Info : Audio Video Interleave
Format profile : OpenDML
File size : 1.15 GiB
Duration : 1 h 24 min
Overall bit rate : 1 952 kb/s
Writing application : Lavf57.71.100
Video
ID : 0
Format : MPEG-4 Visual
Format profile : Advanced Simple@L5
Format settings : BVOP1
Format settings, BVOP : 1
Format settings, QPel : No
Format settings, GMC : No warppoints
Format settings, Matrix : Default (H.263)
Codec ID : XVID
Codec ID/Hint : XviD
Duration : 1 h 24 min
Bit rate : 1 747 kb/s
Width : 720 pixels
Height : 352 pixels
Display aspect ratio : 2.019
Frame rate : 23.976 (24000/1001) FPS
Color space : YUV
Chroma subsampling : 4:2:0
Bit depth : 8 bits
Scan type : Progressive
Compression mode : Lossy
Bits/(Pixel*Frame) : 0.288
Stream size : 1.03 GiB (89%)
Writing library : XviD 67
Audio
ID : 1
Format : AC-3
Format/Info : Audio Coding 3
Codec ID : 2000
Duration : 1 h 24 min
Bit rate mode : Constant
Bit rate : 192 kb/s
Channel(s) : 2 channels
Channel positions : Front: L R
Sampling rate : 48.0 kHz
Frame rate : 31.250 FPS (1536 SPF)
Bit depth : 16 bits
Compression mode : Lossy
Stream size : 116 MiB (10%)
Alignment : Aligned on interleaves
Interleave, duration : 32 ms (0.77 video frame)
Service kind : Complete Main
Скриншоты
Релиз от: HiWay Grope
[Профиль] [ЛС]
Показать сообщения:    
Ответить на тему

Текущее время: 18-Ноя 02:26

Часовой пояс: UTC + 3



Вы не можете начинать темы
Вы не можете отвечать на сообщения
Вы не можете редактировать свои сообщения
Вы не можете удалять свои сообщения
Вы не можете голосовать в опросах
Вы не можете прикреплять файлы к сообщениям
Вы не можете скачивать файлы
Sitemap